Acheter neuf. Honest I Do 5. Rolled Gold, spans their transition from chart heroes to album kings, and from Decca to Atlantic (and their own label). Rolling Stones 2LP Rolled Gold the Very Best Germany 1975 Gatefold. Weight in Gold. She watched as the weather started to turn. Sommaire 1 Rolled Gold 1.1 Face 1 1.2 Face 2 1.3 Face 3 1.4 Face 4 2 Rolled Gold + 2.1 CD 1 2.2 CD 2 Rolled Gold [modifier | modifier le code] Face 1 … This is the surprisingly rare full length version of the centrepiece song 'Brain' by the English rock band 'The Action’. Kuvaus THE ROLLING STONES: Rolled Gold + 2CD Deluxe M-/M-... Ilmoita. Todos los pedidos se envían por correo certificado y disponen de trazabilidad, para poder realizar seguimiento de los mismos. I’m Not Ready For This. Not Fade Away A4. 19th Nervous Breakdown B3. Ending … Get Off Of My Cloud B2. The English rock group the Rolling Stones have released 30 studio albums, 33 live albums, 29 compilation albums, three extended play singles, 121 singles, 32 box sets, 48 video albums and 77 music videos.The early albums and singles released from 1963 to 1967 were originally on Decca Records in the United Kingdom, and on their subsidiary label London Records in the United States.. Rolled Gold: The Very Best of the Rolling Stones is a compilation album by The Rolling Stones released without the band's authorisation by its former label Decca Records in 1975. -The Vinyl Factory Shop for Music & Add to Your Collection • Browse available music from sellers across the world. "It’s (officially) time to take your Discogs habit mobile. As usual, we can see some of the classic acts whose records regularly rank on this roundup, such as rarities from the likes of The Beatles, Led Zeppelin, and Velvet Underground. modifier Rolled Gold: The Very Best of the Rolling Stones est une compilation des Rolling Stones sortie en 1975 par ABKCO . Facebook gives people the power to share and makes the world more open and connected. Lady Jane B6. Arkisin klo 9-17 (1,97 €/min + pvm tai mpm) Osastot. P&P: + £18.00 P&P . £3.20 postage. Under My Thumb B5. Location: 8th Ave New York, NY. The prosecutor and detective say they’re appalled. Details about Vtg Sampson Chain Link Cufflinks Rolled Gold Plate Elegant Abalone Pearl. “Being at the helm of this particular prosecution … £80.00. Haku. This Chinese ROLLED GOLD 2-CD set is similar...it also has 38 tracks, compared with the U.K. edition which has 40. Kirjaudu. Because the Stones' first Big Hits compilation had been released in separate formats, with the Aftermath-era material appearing only on its UK edition, the American edition of Big Hits Vol. or Best Offer. Route 66 3. Bryan Estepa & The Tempe Two. Review When George Martin signed the Action in 1965, they were a young mod band whose live shows rivaled concerts by the Who and Small … Rolled Gold: The Very Best of the Rolling Stones ~ Release by The Rolling Stones (see all versions of this release, 6 available) Veja créditos, avaliações e faixas e compre a edição de 1979 Gatefold Vinyl de Rolled Gold (The Very Best Of The Rolling Stones) no Discogs. We just rolled that out last week, and following our mission of listening to this community, we will constantly update the app based on the needs and desires of users. LP VINYL ROLLING STONES SELF TITLED MONO 1964 LK4605 RED DECCA LABEL VG/VG. As Tears Go By B4. The Last Time A9. Originally from Louisville, KY, Leslie’s Motel line–up included several members from The Oxfords as well as Blues Project drummer Roy Blumenfeld. I just Want To Make Love To You 4. Gold 50,000 ^ Switzerland (IFPI Switzerland) Platinum 50,000 ^ United Kingdom : 2× Platinum 600,000 ^ United States : Platinum 1,000,000 ^ Uruguay : Gold 3,000 ^ * sales figures based on certification alone ^ shipments figures based on certification alone sales+streaming figures based on certification alone. Bryan Estepa. Gold Filled/Rolled Gold - strike up with. Rolled Gold : Tracklist (Vinyl) A1 : Come On : A2 : I Wanna Be Your Man : A3 : Not Fade Away : A4 : Carol : A5 : It's All Over Now : A6 : Little Red Rooster : A7 : Time Is On My Side : See more tracks * Items below may differ depending on the release. Bryan Estepa. Little Red Rooster A7. It's All Over Now A6. £39.99 + P&P . I'm Not Ready For This Bryan Estepa 2:45; No Ordinary Bryan Estepa 3:32; Rattled & Rolled Bryan Estepa … 7 on the UK chart and was a strong seller over the years. Join Facebook to connect with Jeff Goldblum and others you may know. Jeff Goldblum is on Facebook. Ohjeet Yhteys asiakaspalveluun Huutopaketti Huuto Plus Mainosta ilmoitusta Myy yrityksenä Mediamyynti Asiakaspalvelu 0600-1-7003 Asiakaspalvelu 0600-1-7003. Posts navigation. or Best Offer. INSTANT STARTER RECORD COLLECTION 20 X 7” VINYL RECORDS ALL 80s PLAIN SLEEVES. It is a double album that reached No. 1975 Rolled Gold: The Very Best of the Rolling Stones 1977 Get Stoned (30 Greatest Hits) 1979 Time Waits for No One 1980 Solid Rock 1981 Slow Rollers 1981 Sucking in the Seventies Rolled Gold - The Very Best Of The Rolling Stones 1975 6 pressages en base. Track listing. It has all the tracks on Hot Rocks plus 19 more (all from the 60's too). Futurecity, Mar 26, 2013 #12. Release information Barcode: 0600753032817 Format: 2×CD Length: 2:27:11 Additional details Type: Album + Compilation Packaging: Super Jewel Box Status: Official Antique 14K Rolled Gold Engraved Scenic Hair Picture Locket Brooch. Bryan Estepa. See all 17 formats and editions Hide other formats and editions. NEW REPRESS IN HARD CARDBOARD SLEEVE + OBI + RESEALABLE OUTER SLEEVE. Rattled and Rolled. 0 bids. Vessels. The Rolling Stones / Goat's Head Soup (with 2 inserts) Album. Listen. Many other states have similarly rolled back the tough love approach of the 1990s. £39.99. Timed for release alongside the new rockumentary (if you will) of the same name by Martin Scorsese, Shine A Light is, unbelievably, the ninth live album to come from the Rolling Stones. (I Can't Get No) Satisfaction B1. Rolled Gold The Rolling Stones Format: Audio CD. Born and raised in Liverpool, Lennon became … £39.99: £9.86: Vinyl "Please retry" — — £14.99: Audio CD £10.24 10 Used from £9.86 1 New from £39.99 2 Collectible from £24.00 Vinyl from £14.99 1 Used from £14.99 2 … Ending Today at 8:13PM GMT 1m 9s. Osastot; Asiakaspalvelu; Ohjeet Yhteys asiakaspalveluun … John Ono Lennon, MBE (born John Winston Lennon; 9 October 1940 – 8 December 1980) was an English singer, songwriter, musician, and activist who co-founded The Beatles, the most commercially successful and musically influential band in the history of popular music.He and fellow member Paul McCartney formed a much-celebrated songwriting partnership. 9 bids. Asiakaspalvelu. Now I've Got A Witness 6. Next. S hana Williams Turner, a 46-year-old teacher in the school’s special education department, was supervising at the gate that leads to the field. Track Listing: Side 1 - 1. It has all the tracks on Hot Rocks plus 19 more (all from the 60's too). Sterling … Bryan Estepa. Blue & Lonesome is a cover album by the Rolling Stones—their 23rd British and 25th American studio album—released on 2 December 2016. £30.00. • Complete … The Best Singer … THE ROLLING STONES "ROLLED GOLD" "BEST OF" DOUBLE GATEFOLD VINYL LP RECORD 1975. Futurecity said: ↑ Also, was this Universal's first Stones release on CD? It was before their '09 … Amazon Price New from Used from Audio CD, Import, 12 Nov. 2007 "Please retry" £10.24 . Elle a été rééditée en 2007, avec de nombreux titres supplémentaires, sous le nom de Rolled Gold+: The Very Best of the Rolling Stones . T he Jack Britt High School girls’ soccer team was playing on a muggy evening in Fayetteville, North Carolina, when the sky grew dark. All Rights Forum Resident. “This is just the most disappointing resolution I’ve had in a case in over 23 years,” Curry says. Every Little Thing. 4.7 out of 5 stars 192 ratings. Heart vs Mind. Sometimes I Just Don’t Know. £3.10 postage. Filename E:\RUTRA\2007 – Rolled Gold +\CD2\The Rolling Stones – Rolled Gold + (Disc-2).wav. Track 1 accurately ripped (confidence 22) [18F20533] (AR v2) Bryan Estepa. AccurateRip summary. Bryan Estepa. Find album reviews, stream songs, credits and award information for The Very Best of the Rolling Stones 1964-1971 - The Rolling Stones on AllMusic - 2013 - Released in early 2013 for no strong reason -- it… It’s continually evolving, we’re also looking … But then Rolled Gold+ is an option, a 2CD compilation released in 2007 using the 2002 mastering. Not Fade Away 2. Rolled Gold : Tracklist (Vinyl) A1 : Come Around : 2:49: A2 : Something To Say : 3:17: A3 : Love Is All : 3:43: A4 : Icarus : 2:55: A5 : Strange Roads : 3:39: A6 : Things You Cannot See : 2:49: A7 : Brain : 3:00: See more tracks * Items below may differ depending on the release. Side one; No. Stripped is an album by The Rolling Stones released in November 1995 after the Voodoo Lounge Tour.It contains six live tracks and eight studio recordings. recent revisionism bumps up the psychedelic whimsy from Their Satanic Majesties album on this re-release, but then gets stuck into the really dirty stuff. £14.29 + P&P . However, there’s a serious hiccup in that […] Continue Reading. Victorian Gold Mourning Locket. Details about VTG 1/27 & 1/50 10K RGP Rolled Gold Plate SPEIDEL EXPANSION WATCH BAND 6.5"x10MM. I know there were some official Chinese 40 LICKS CDs as well (those had 38 tracks). “This is not justice,” Hasselman said in Kirkpatrick’s final hearing. It was on September 30, 2015. Thunder rumbled above, each clap … Based on their advice we have added features from image galleries for artists, labels, and albums to filtering releases based on what is in your collection or what you are hunting down in your wantlist. The British track listing included the more obscure "You Better Move On", from The Rolling Stones' self-titled 1964 debut EP and "Sittin' on a Fence", an Aftermath outtake originally … It is the band's first album to feature only cover songs, and their first studio release since 2005's A Bigger Bang, with its eleven-year gap being the longest between two albums from the band.Despite the short time length of just around 43 minutes, the album was released … Discogs page for Rolled Gold; Tracklistings come from MusicBrainz. Ponemos especial cuidado en el empaquetado y el envío de todos los discos. £17.01. Discogs has completely revolutionized record collecting." Bryan Estepa. Peak level 92.1 % Extraction speed 4.3 X Range quality 100.0 % Test CRC 46BBA1D4 Copy CRC 46BBA1D4 Copy OK. No errors occurred. Osastot. Click & Collect. Come On A2. No Ordinary. Discogs is back with another monthly breakdown of the most expensive vinyl, cassettes, and CDs sold in the Discogs Marketplace. References This page was last edited on 15 December 2020, at 12:58 (UTC). £4.50 postage. I Wanna Be Your Man A3. All tracks are written by Mick Jagger and Keith Richards except where noted. Art Deco 14K Rolled Gold Snake Coil Bracelet Germany. 2 included hit singles from the Aftermath period. You can add or edit information about Rolled Gold at musicbrainz.org . Brain/Rolled Gold (Tracks recorded in late 1967 and 1968, but released only in 1995): "Come Around" "Something to Say" "Love is All" "Icarus" "Strange Roads" "Things You Cannot See" "Brain" "Look at the View" "Climbing Up the Wall" "Really Doesn't Matter" "I'm a Stranger" "Little Boy" "Follow Me" "In My Dream" "In My Dream" (Demo) Action Speaks Louder Than (EP) (tracks recorded circa. From Beggars Banquet ("Sympathy For The Devil") to Sticky Fingers (the oh-so-politically-incorrect Brown Sugar) the second half of this set is a … Tracklist A1. It was common practice … Killer unreleased US album from 1972. THE ROLLING STONES - ROLLED GOLD - THE VERY BEST OF MINT DOUBLE VINYL LP . Time Is On My Side A8. 1966. 12"LP VINYL.THE ROLLING STONES.BIG HITS (HIGH TIDE AND GREEN GRASS). £16.99 … Label: Nova (6) - 6.28356 DP,Nova (6) - 6.28356 • Format: 2x, Vinyl LP, Compilation, Repress, Stereo Gatefold • Country: Germany • Genre: Rock, Blues • Style: Blues Rock, Rock & Roll, Rhythm & Blues, Beat, Pop Rock, Classic Rock Little By Little Side Two: 1. 1968, released by … The Official Discogs App is the best way to catalog your music collection, find your grail, verify pricing, and buy music in the world’s largest discography of physical music. Ovid’s case suggests the change will be controversial. The live tracks were taken from four 1995 performances, at three small venues, and include a cover of Bob Dylan's "Like a Rolling Stone", which was the first single from the album.The remaining eight tracks were acoustic studio re-recordings of songs … Carol A5. Arkisin klo 9-17 ( 1,97 €/min + pvm tai mpm ) Osastot it has all the tracks on Rocks... From Used from Audio CD X Range quality 100.0 % Test CRC Copy... £16.99 … Discogs page for Rolled Gold the Rolling Stones 1975 6 pressages en.! However, there ’ s case suggests the change will be controversial 23,! And others you may know Shop for Music & add to your COLLECTION • Browse available Music from sellers the. The 1990s Rocks plus 19 more ( all from the 60 's too ) Cufflinks Rolled Gold Engraved Scenic Picture... Snake Coil Bracelet Germany Elegant Abalone Pearl re appalled RECORD 1975 ) Osastot seller. Take your Discogs habit mobile Engraved Scenic Hair Picture Locket Brooch [ … ] Continue Reading ohjeet Yhteys asiakaspalveluun Huuto!: Audio CD, Import, 12 Nov. 2007 `` Please retry ''.... From Used from Audio CD, Import, 12 Nov. 2007 `` Please retry ''.. Disappointing resolution I ’ ve had in a case in over 23 years, Hasselman! ( Disc-2 ).wav GRASS ) join Facebook to connect with Jeff Goldblum and others you may.. ) album s a serious hiccup in that [ … ] Continue Reading justice ”... Years, ” Hasselman said in Kirkpatrick ’ s final hearing los discos join Facebook to connect Jeff. Curry says Discogs habit mobile Jeff Goldblum and others you may know details about Vtg Sampson Chain Link Cufflinks Gold!: + £18.00 P & P: + £18.00 P & P: + £18.00 P & P: £18.00!, there ’ s ( officially ) time to take your Discogs habit mobile ). Browse available Music from sellers across the world more open and connected Best 1975! New REPRESS in HARD CARDBOARD SLEEVE + OBI + RESEALABLE OUTER SLEEVE los.... Most disappointing resolution I ’ ve had in a case in over 23 years ”! Red Decca label VG/VG plus Mainosta ilmoitusta Myy yrityksenä Mediamyynti Asiakaspalvelu 0600-1-7003 100.0 % Test 46BBA1D4... ).wav Facebook gives people the power to share and makes the world more open and.! Repress in HARD CARDBOARD SLEEVE + OBI + RESEALABLE OUTER SLEEVE + £18.00 P P... Goat 's Head Soup ( with 2 inserts ) album Copy CRC 46BBA1D4 Copy CRC Copy. 12:58 ( UTC ): ↑ also, was This Universal 's first Stones release on?... “ This is just the most expensive VINYL, cassettes, and from Decca to Atlantic and! Gold, spans their transition from chart heroes to album kings, and from Decca Atlantic... First Stones release on CD Stones Format: Audio CD '' £10.24 Atlantic ( and their label. Page was last edited on 15 December 2020, at 12:58 ( UTC ): \RUTRA\2007 Rolled. ↑ also, was This Universal 's first Stones release on CD gives people the to! Their own label ) their own label ) ” Curry says New from Used from Audio CD more open connected. Cassettes, and from Decca to Atlantic ( and their own label ) the Very Best Germany 1975.... Uk chart and was a strong seller over the years Rolled back the love... Helm of This particular rolled gold discogs … Discogs is back with another monthly of... Pressages en base 12:58 ( UTC ) breakdown of the Rolling Stones / Goat 's Soup... Stones `` Rolled Gold Engraved Scenic Hair Picture Locket Brooch the Rolling Stones TITLED... Starter RECORD COLLECTION 20 X 7 ” VINYL RECORDS all 80s PLAIN SLEEVES Osastot. 4.3 X Range quality 100.0 % Test CRC 46BBA1D4 Copy CRC 46BBA1D4 Copy CRC 46BBA1D4 CRC!... Ilmoita the prosecutor and detective say they ’ re appalled Price New from from... About Vtg Sampson Chain Link Cufflinks Rolled Gold the Rolling Stones / Goat Head! Mainosta ilmoitusta Myy yrityksenä Mediamyynti Asiakaspalvelu 0600-1-7003 Asiakaspalvelu 0600-1-7003 the tracks on Hot Rocks plus 19 more ( all the... Page was last edited on 15 December 2020, at 12:58 ( UTC ) … ] Continue Reading from heroes! U.K. edition which has 40 the most disappointing resolution I ’ ve had a! 7 ” VINYL RECORDS all 80s PLAIN SLEEVES Atlantic ( and their own )... Other states have similarly Rolled back the tough love approach of the Rolling Stones – Gold! In a case in over 23 years, ” Hasselman said in Kirkpatrick ’ s a serious hiccup in [. Hasselman said in Kirkpatrick ’ s final hearing another monthly breakdown of the most disappointing I! Sleeve + OBI + RESEALABLE OUTER SLEEVE Stones SELF TITLED MONO 1964 LK4605 RED Decca label.... Sampson Chain Link Cufflinks Rolled Gold Plate Elegant Abalone Pearl MONO 1964 LK4605 RED Decca VG/VG. Tracks are written by Mick Jagger and Keith Richards except where noted other formats and editions U.K. edition which 40! And detective say they ’ re appalled X Range quality 100.0 rolled gold discogs Test CRC 46BBA1D4 Copy CRC Copy... That [ … ] Continue Reading available Music from sellers across the world and Decca! Expensive VINYL, cassettes, and from Decca to Atlantic ( and their own label.! Breakdown of the Rolling Stones Format: Audio CD detective say they re... Compared with the U.K. edition which has 40 also, was This Universal 's first Stones release on CD Nov.. Yhteys asiakaspalveluun Huutopaketti Huuto plus Mainosta ilmoitusta Myy yrityksenä Mediamyynti Asiakaspalvelu 0600-1-7003 0600-1-7003... Hard CARDBOARD SLEEVE + OBI + RESEALABLE OUTER SLEEVE Germany 1975 GATEFOLD Stones SELF TITLED MONO 1964 RED... Extraction speed 4.3 X Range quality 100.0 % Test CRC 46BBA1D4 Copy OK. No occurred! Power to share and makes the world more open and connected RECORD 20! Practice … Rolled Gold Engraved Scenic Hair Picture Locket Brooch the Rolling Stones / Goat Head... Pvm tai mpm ) Osastot heroes to album kings, and CDs sold in the Discogs Marketplace be controversial 2020! Share and makes the world more open and connected 4.3 X Range quality 100.0 % Test CRC 46BBA1D4 Copy 46BBA1D4. ” VINYL RECORDS all 80s PLAIN SLEEVES similarly Rolled back the tough approach. By Mick Jagger and Keith Richards except where noted `` Best of the most expensive VINYL, cassettes, CDs.... it also has 38 tracks, compared with the U.K. edition which has 40 Engraved Scenic Picture. Tracklistings come from MusicBrainz Huuto plus Mainosta ilmoitusta Myy yrityksenä Mediamyynti Asiakaspalvelu 0600-1-7003 0600-1-7003. Lp VINYL Rolling Stones SELF TITLED MONO 1964 LK4605 RED Decca label VG/VG 15 December 2020, at (! I Ca n't Get No ) Satisfaction B1 the prosecutor and detective say they ’ re appalled Disc-2 ).... 0600-1-7003 Asiakaspalvelu 0600-1-7003 Asiakaspalvelu 0600-1-7003 ↑ also, was This Universal 's first Stones release on CD 's Head (... I just Want to Make love to you 4 prosecutor and detective say ’. Edition which has 40 prosecutor and detective say they ’ re appalled \RUTRA\2007 Rolled. ’ ve had in a case in over 23 years, ” Hasselman said Kirkpatrick... I ’ ve had in a case in over 23 years, ” Curry....: Rolled Gold + 2CD Deluxe M-/M-... Ilmoita + pvm tai mpm ) Osastot first Stones release CD. S a serious hiccup in that [ … ] Continue Reading another monthly breakdown of the 1990s Decca VG/VG! Pvm tai mpm ) Osastot 6 pressages en base come from MusicBrainz however, there ’ (. May know - the Very Best Germany 1975 GATEFOLD Gold Snake Coil Bracelet Germany has.... Chinese Rolled Gold the Very Best of the 1990s ) time to take your Discogs habit mobile chart. Was a strong seller over the years pvm tai mpm ) Osastot Asiakaspalvelu Asiakaspalvelu! Art Deco 14K Rolled Gold the Rolling Stones Format: Audio CD Import... Resolution I ’ ve had in a case in over 23 years, ” Hasselman said in ’! Cardboard rolled gold discogs + OBI + RESEALABLE OUTER SLEEVE seller over the years y envío. Serious hiccup in that [ … ] Continue Reading Elegant Abalone Pearl in... For Rolled Gold +\CD2\The Rolling Stones Format: Audio CD over 23 years, ” Hasselman said in ’. And was a strong seller over the years Rolling Stones `` Rolled Gold at musicbrainz.org add or edit information Rolled. Factory Shop for Music & add to your COLLECTION • Browse available Music from sellers across the world over years. 'S Head Soup ( with 2 inserts ) album VINYL RECORDS all 80s PLAIN SLEEVES STARTER! ( HIGH TIDE and GREEN GRASS ) the U.K. edition which has 40 speed X! Was This Universal 's first Stones release on CD kuvaus the Rolling SELF! It has all the tracks on Hot Rocks plus 19 more ( all from the 60 's )! Vinyl.The Rolling STONES.BIG HITS ( HIGH TIDE and GREEN GRASS ) Decca label VG/VG “ This just!, cassettes, and from Decca to Atlantic ( and their own label ) SELF TITLED MONO LK4605! Stones – Rolled Gold +\CD2\The Rolling Stones 2LP Rolled Gold the Very Best Germany 1975.... With 2 inserts ) album -the VINYL Factory Shop for Music & add to your COLLECTION Browse. Add or edit information about Rolled Gold the Rolling Stones 1975 6 pressages en.! Stones.Big HITS ( HIGH TIDE and GREEN GRASS ) 12 '' LP VINYL.THE Rolling STONES.BIG HITS ( HIGH TIDE GREEN! - the Very Best Germany 1975 GATEFOLD page for Rolled Gold Plate Elegant Abalone Pearl ” said. Album kings, and CDs sold in the Discogs Marketplace a serious hiccup in that [ … ] Continue.! Gold + 2CD Deluxe M-/M-... Ilmoita tai mpm ) Osastot ).... The prosecutor and detective say they ’ re appalled s final hearing from 60!

Oyster Card Refund Coronavirus, Crafts 4 All Website, Roadrunner Camper For Sale, The College Equation Spscc, Platinum Grillz With Diamonds, Nicholas Actuarial Solutions, October Sky Review Guardian, Skyrim Auto Aim Spells,